[Login] or [Signup]
Login
Username:
Password:
[Signup]
[Recover Account]


Poll


You must be logged in to view polls



Torrent Details For "The Walking Dead S09E08 1080p AMZN WEB-DL DD 5.1 x264 ESub [MW]"

The Walking Dead S09E08 1080p AMZN WEB-DL DD 5.1 x264 ESub [MW]

Download this torrent | Magnet Download
Health:
Seeds: 94
Leechers: 75
Completed: 205 
Last Checked: 27-11-2018 08:29:30
External Torrent
Update Stats
Download Magnet


Poster
No poster


Watch-Free-HD     Download

Details
Name:The Walking Dead S09E08 1080p AMZN WEB-DL DD 5.1 x264 ESub [MW]
Description:

 


General
Format                                   : Matroska
Format version                           : Version 4 / Version 2
File size                                : 1.12 GiB
Duration                                 : 44 min 14 s
Overall bit rate                         : 3 610 kb/s

Video
ID                                       : 1
Format                                   : AVC
Format/Info                              : Advanced Video Codec
Format profile                           : [email protected]
Format settings                          : CABAC / 4 Ref Frames
Format settings, CABAC                   : Yes
Format settings, RefFrames               : 4 frames
Codec ID                                 : V_MPEG4/ISO/AVC
Duration                                 : 44 min 14 s
Bit rate                                 : 3 000 kb/s
Width                                    : 1 920 pixels
Height                                   : 1 080 pixels
Display aspect ratio                     : 16:9
Frame rate mode                          : Constant
Frame rate                               : 23.976 (24000/1001) FPS
Color space                              : YUV
Chroma subsampling                       : 4:2:0
Bit depth                                : 8 bits
Scan type                                : Progressive
Bits/(Pixel*Frame)                       : 0.060
Stream size                              : 939 MiB (82%)
Writing library                          : x264 core 155 r2901 7d0ff22
Default                                  : Yes
Forced                                   : No

Audio
ID                                       : 2
Format                                   : E-AC-3
Format/Info                              : Enhanced Audio Coding 3
Codec ID                                 : A_EAC3
Duration                                 : 44 min 14 s
Bit rate mode                            : Constant
Bit rate                                 : 640 kb/s
Channel(s)                               : 6 channels
Channel positions                        : Front: L C R, Side: L R, LFE
Sampling rate                            : 48.0 kHz
Frame rate                               : 187.500 FPS (256 SPF)
Compression mode                         : Lossy
Stream size                              : 203 MiB (18%)
Language                                 : English
Service kind                             : Complete Main
Default                                  : Yes
Forced                                   : No

Text #1
ID                                       : 3
Format                                   : UTF-8
Codec ID                                 : S_TEXT/UTF8
Codec ID/Info                            : UTF-8 Plain Text
Duration                                 : 44 min 1 s
Bit rate                                 : 53 b/s
Count of elements                        : 704
Stream size                              : 17.3 KiB (0%)
Language                                 : English
Default                                  : No
Forced                                   : No

Text #2
ID                                       : 4
Format                                   : UTF-8
Codec ID                                 : S_TEXT/UTF8
Codec ID/Info                            : UTF-8 Plain Text
Duration                                 : 44 min 4 s
Bit rate                                 : 61 b/s
Count of elements                        : 854
Stream size                              : 19.7 KiB (0%)
Title                                    : SDH
Language                                 : English
Default                                  : No
Forced                                   : No


Click To View Image

 http://pichub.site/image/ch1r4
 http://pichub.site/image/chZCt
 http://pichub.site/image/ch9Qp
 http://pichub.site/image/chT7y
 http://pichub.site/image/chFGb
 http://pichub.site/image/chQZ0

Category:TV > WEB-HD
Lang:English  English
Total Size:1.12 GB
Info Hash:3b2326fc2adcee99ecf833b3bb3b95ab4687048d
Added By:Freaky
Date Added:27-11-2018 08:29:00
Views:243
Hits:80

Download Torrent

Ratings:Not Yet Rated (Log in to rate it)


Tracker:
udp://tracker.coppersurfer.tk:6969/announce


File List: 


Comments

No comments still posted

Powered by 10 Hamsters v2-svn -|- Page Generated In 0.129780 secs.
-|- RSS FEED
Theme By: Nikkbu