[Login] or [Signup]
Login
Username:
Password:
[Signup]
[Recover Account]


Poll


You must be logged in to view polls



Torrent Details For "Zubaan.2016.1080p.WEBRip.Hindi.AAC.MoviesMB"

Zubaan.2016.1080p.WEBRip.Hindi.AAC.MoviesMB

Download this torrent | Magnet Download
Health:
Seeds: 0
Leechers: 0
Completed:
Last Checked: 09-01-2019 17:31:15
External Torrent
Update Stats
Download Magnet


Poster
No poster


Watch-Free-HD     Download

Details
Name:Zubaan.2016.1080p.WEBRip.Hindi.AAC.MoviesMB
Description:


 

[size=20]Zubaan.2016.1080p.WEBRip.Hindi.AAC.MoviesMB[/size]


[size=20] MoviesMB
[/size]

 [size=20]Dow...u[/size]


[size=25]Buy PowerFull VPS And RDP From  RDPArena.com[/size]

[size=25]Use Coupon EXTRADESI get 30% Discount on All RDP and VPS Plans
[/size]


 


Video
ID                                       : 1
Format                                   : AVC
Format/Info                              : Advanced Video Codec
Format profile                           : [email protected]
Format settings                          : CABAC / 5 Ref Frames
Format settings, CABAC                   : Yes
Format settings, RefFrames               : 5 frames
Codec ID                                 : V_MPEG4/ISO/AVC
Duration                                 : 1 h 51 min
Bit rate                                 : 1 800 kb/s
Width                                    : 1 920 pixels
Height                                   : 820 pixels
Display aspect ratio                     : 2.35:1
Frame rate mode                          : Constant
Frame rate                               : 25.000 FPS
Color space                              : YUV
Chroma subsampling                       : 4:2:0
Bit depth                                : 8 bits
Scan type                                : Progressive
Bits/(Pixel*Frame)                       : 0.046
Stream size                              : 1.40 GiB (93%)
Title                                    : MoviesMB
Writing library                          : x264 core 157 r2935 545de2f
Language                                 : Hindi
Default                                  : Yes
Forced                                   : No
Color range                              : Limited
Color primaries                          : Generic film
Transfer characteristics                 : BT.709
Matrix coefficients                      : BT.709

Audio
ID                                       : 2
Format                                   : AAC
Format/Info                              : Advanced Audio Codec
Format profile                           : LC
Codec ID                                 : A_AAC-2
Duration                                 : 1 h 51 min
Bit rate                                 : 123 kb/s
Channel(s)                               : 6 channels
Channel positions                        : Front: L C R, Side: L R, LFE
Sampling rate                            : 48.0 kHz
Frame rate                               : 46.875 FPS (1024 SPF)
Compression mode                         : Lossy
Delay relative to video                  : 9 ms
Stream size                              : 98.3 MiB (6%)
Title                                    : MoviesMB
Language                                 : Hindi
Default                                  : Yes
Forced                                   : No






                   

 



Category:Movies > Bollywood
Lang:Hindi
Total Size:1.52 GB
Info Hash:83eac1e908024c2bc7c63a32ead5f2da174da071
Added By:Unknown
Date Added:09-01-2019 14:31:26
Views:1,185
Hits:78

Download Torrent

Ratings:Not Yet Rated (Log in to rate it)


Tracker:
UDP://TRACKER.LEECHERS-PARADISE.ORG:6969/ANNOUNCE


File List: 


Comments

No comments still posted

Powered by 10 Hamsters v2-svn -|- Page Generated In 1.860271 secs.
-|- RSS FEED
Theme By: Nikkbu