[Login] or [Signup]
Login
Username:
Password:
[Signup]
[Recover Account]


Poll


You must be logged in to view polls



Torrent Details For "Venom.2018.1080p.Bluray.Multi.Audio.BD.5.1.Hindi.Tamil.Telugu.English.6CH.x264.MAVI"

Venom.2018.1080p.Bluray.Multi.Audio.BD.5.1.Hindi.Tamil.Telugu.English.6CH.x264.MAVI

Download this torrent | Magnet Download
Health:
Seeds: 9
Leechers: 9
Completed: 36 
Last Checked: 13-01-2019 07:50:15
External Torrent
Update Stats
Download Magnet


Poster
No poster


Watch-Free-HD     Download

Details
Name:Venom.2018.1080p.Bluray.Multi.Audio.BD.5.1.Hindi.Tamil.Telugu.English.6CH.x264.MAVI
Description:

Quote:

[size=25]Movie Encoded From Full Bluray Disk
&
Only For Quality Lovers
[/size]

[size=25]Org Untouched Bluray DD 5.1 640kbps Multi Audio (Thanks MAVI)[/size]




[size=25]Venom.2018.1080p.Bluray.Multi.Audio.BD.5.1.Hindi.Tamil.Telugu.English.6CH.x264.MAVI[/size]

Video
ID                                       : 1
Format                                   : AVC
Format/Info                              : Advanced Video Codec
Format profile                           : [email protected]
Format settings                          : CABAC / 5 Ref Frames
Format settings, CABAC                   : Yes
Format settings, RefFrames               : 5 frames
Codec ID                                 : V_MPEG4/ISO/AVC
Duration                                 : 1 h 52 min
Bit rate                                 : 5 000 kb/s
Width                                    : 1 920 pixels
Height                                   : 800 pixels
Display aspect ratio                     : 2.40:1
Frame rate mode                          : Constant
Frame rate                               : 23.976 (24000/1001) FPS
Color space                              : YUV
Chroma subsampling                       : 4:2:0
Bit depth                                : 8 bits
Scan type                                : Progressive
Bits/(Pixel*Frame)                       : 0.136
Stream size                              : 3.92 GiB (65%)
Writing library                          : x264 core 157 r2935 545de2f
Language                                 : English
Default                                  : Yes
Forced                                   : No
Color range                              : Limited
Color primaries                          : Generic film
Transfer characteristics                 : BT.709
Matrix coefficients                      : BT.709

Audio #1
ID                                       : 2
Format                                   : AC-3
Format/Info                              : Audio Coding 3
Codec ID                                 : A_AC3
Duration                                 : 1 h 52 min
Bit rate mode                            : Constant
Bit rate                                 : 640 kb/s
Channel(s)                               : 6 channels
Channel positions                        : Front: L C R, Side: L R, LFE
Sampling rate                            : 48.0 kHz
Frame rate                               : 31.250 FPS (1536 SPF)
Bit depth                                : 16 bits
Compression mode                         : Lossy
Stream size                              : 514 MiB (8%)
Language                                 : English
Service kind                             : Complete Main
Default                                  : Yes
Forced                                   : No

Audio #2
ID                                       : 3
Format                                   : AC-3
Format/Info                              : Audio Coding 3
Codec ID                                 : A_AC3
Duration                                 : 1 h 52 min
Bit rate mode                            : Constant
Bit rate                                 : 640 kb/s
Channel(s)                               : 6 channels
Channel positions                        : Front: L C R, Side: L R, LFE
Sampling rate                            : 48.0 kHz
Frame rate                               : 31.250 FPS (1536 SPF)
Bit depth                                : 16 bits
Compression mode                         : Lossy
Stream size                              : 514 MiB (8%)
Language                                 : Hindi
Service kind                             : Complete Main
Default                                  : No
Forced                                   : No

Audio #3
ID                                       : 4
Format                                   : AC-3
Format/Info                              : Audio Coding 3
Codec ID                                 : A_AC3
Duration                                 : 1 h 52 min
Bit rate mode                            : Constant
Bit rate                                 : 640 kb/s
Channel(s)                               : 6 channels
Channel positions                        : Front: L C R, Side: L R, LFE
Sampling rate                            : 48.0 kHz
Frame rate                               : 31.250 FPS (1536 SPF)
Bit depth                                : 16 bits
Compression mode                         : Lossy
Stream size                              : 514 MiB (8%)
Language                                 : Tamil
Service kind                             : Complete Main
Default                                  : No
Forced                                   : No

Audio #4
ID                                       : 5
Format                                   : AC-3
Format/Info                              : Audio Coding 3
Codec ID                                 : A_AC3
Duration                                 : 1 h 52 min
Bit rate mode                            : Constant
Bit rate                                 : 640 kb/s
Channel(s)                               : 6 channels
Channel positions                        : Front: L C R, Side: L R, LFE
Sampling rate                            : 48.0 kHz
Frame rate                               : 31.250 FPS (1536 SPF)
Bit depth                                : 16 bits
Compression mode                         : Lossy
Stream size                              : 514 MiB (8%)
Language                                 : Telugu
Service kind                             : Complete Main
Default                                  : No
Forced                                   : No

Text #1
ID                                       : 6
Format                                   : PGS
Codec ID                                 : S_HDMV/PGS
Codec ID/Info                            : Picture based subtitle format used on BDs/HD-DVDs
Duration                                 : 1 h 49 min
Bit rate                                 : 32.6 kb/s
Count of elements                        : 2703
Stream size                              : 25.5 MiB (0%)
Language                                 : English
Default                                  : Yes
Forced                                   : No

Text #2
ID                                       : 7
Format                                   : PGS
Codec ID                                 : S_HDMV/PGS
Codec ID/Info                            : Picture based subtitle format used on BDs/HD-DVDs
Duration                                 : 1 h 49 min
Bit rate                                 : 44.9 kb/s
Count of elements                        : 3660
Stream size                              : 35.1 MiB (1%)
Language                                 : English
Default                                  : No
Forced                                   : No

Menu
00:00:00.000                             : en:00:00:00.000
00:02:35.155                             : en:00:02:35.155
00:02:59.846                             : en:00:02:59.846
00:03:34.089                             : en:00:03:34.089
00:03:52.441                             : en:00:03:52.441
00:06:01.695                             : en:00:06:01.695
00:09:31.696                             : en:00:09:31.696
00:11:06.291                             : en:00:11:06.291
00:15:12.578                             : en:00:15:12.578
00:15:29.470                             : en:00:15:29.470
00:16:35.161                             : en:00:16:35.161
00:26:24.166                             : en:00:26:24.166
00:32:46.047                             : en:00:32:46.047
00:35:32.756                             : en:00:35:32.756
00:36:11.086                             : en:00:36:11.086
00:36:32.941                             : en:00:36:32.941
00:37:14.441                             : en:00:37:14.441
00:46:51.642                             : en:00:46:51.642
00:48:13.432                             : en:00:48:13.432
00:53:37.673                             : en:00:53:37.673
00:54:21.258                             : en:00:54:21.258
00:54:29.975                             : en:00:54:29.975
00:55:26.365                             : en:00:55:26.365
00:56:19.084                             : en:00:56:19.084
00:56:43.317                             : en:00:56:43.317
00:57:01.627                             : en:00:57:01.627
00:58:54.489                             : en:00:58:54.489
00:59:04.082                             : en:00:59:04.082
01:00:36.591                             : en:01:00:36.591
01:05:59.581                             : en:01:05:59.581
01:07:36.928                             : en:01:07:36.928
01:17:38.028                             : en:01:17:38.028
01:23:11.820                             : en:01:23:11.820
01:23:25.083                             : en:01:23:25.083
01:24:14.049                             : en:01:24:14.049
01:27:21.236                             : en:01:27:21.236





 
 
 
 
 
 
 
 
 
 
 

Category:Movies > Bollywood
Lang:Hindi
Total Size:6.05 GB
Info Hash:d5a1ec9b2220b1248f9710a6f20ff98c3153f569
Added By:Unknown
Date Added:09-01-2019 18:01:56
Views:725
Hits:70

Download Torrent

Ratings:Not Yet Rated (Log in to rate it)


Tracker:
UDP://TRACKER.LEECHERS-PARADISE.ORG:6969/ANNOUNCE


File List: 


Comments

No comments still posted

Powered by 10 Hamsters v2-svn -|- Page Generated In 1.755790 secs.
-|- RSS FEED
Theme By: Nikkbu